ANT MAN AND THE WASP(2018)1080p Blu-Ray Rip mp-4[DaScubaDude]

seeders: 2 leechers: 0 updated:
Added by dascubadude 1,032 in Movies > HD
Torrent verified. Downloaded 56 times.
Infohash f7575653b87a7f76a17d2407f89854625d1c40e8
Cover
Ant-Man and the Wasp ( 2018 )
VIDEO Blu-ray — 1080p — Unknown
AUDIO English
Rated PG-13
Released on 06 Jul 2018
Cate-Type Movie
Runtime 118 min
IMDB Link 5095030
IMDB Rating 7.1 (290,077 votes)
Summary
As Scott Lang balances being both a superhero and a father, Hope van Dyne and Dr. Hank Pym present an urgent new mission that finds the Ant-Man fighting alongside The Wasp to uncover secrets from their past.

Seek-Available

  • ANT_MAN_AND_THE_WASP (Size: 1.82 GB)
      • screenshot248.jpg
      22.55 kB
      • screenshot251.jpg
      26.77 kB
      • screenshot250.jpg
      32.13 kB
      • screenshot254.jpg
      48.06 kB
      • Read me.rtf
      3.72 MB
      • ANT_MAN_AND_THE_WASP.theatrical.mp4
      1.82 GB
    • Files view Limit 50 — Current Torrent have 6 files

Description

--General
Complete name                            : ANT_MAN_AND_THE_WASPANT_MAN_AND_THE_WASP.theatrical.mp4
Format                                   : MPEG-4
Format profile                           : Base Media / Version 2
Codec ID                                 : mp42 (mp42/isom/avc1)
File size                                : 1.82 GiB
Duration                                 : 1 h 58 min
Overall bit rate mode                    : Variable
Overall bit rate                         : 2 204 kb/s
Movie name                               : ANT_MAN_AND_THE_WASP.theatrical
Album                                    : ANT_MAN_AND_THE_WASP
Encoded date                             : UTC 2019-01-20 12:00:06
Tagged date                              : UTC 2019-01-20 13:11:12
Writing application                      : DVDFab 11.0.1.4
Cover                                    : Yes

Video
ID                                       : 1
Format                                   : AVC
Format/Info                              : Advanced Video Codec
Format profile                           : Main@L4
Format settings                          : CABAC / 2 Ref Frames
Format settings, CABAC                   : Yes
Format settings, RefFrames               : 2 frames
Format settings, GOP                     : M=1, N=24
Codec ID                                 : avc1
Codec ID/Info                            : Advanced Video Coding
Duration                                 : 1 h 58 min
Source duration                          : 1 h 58 min
Bit rate mode                            : Variable
Bit rate                                 : 1 721 kb/s
Maximum bit rate                         : 2 776 kb/s
Width                                    : 1 920 pixels
Height                                   : 804 pixels
Display aspect ratio                     : 2.40:1
Frame rate mode                          : Constant
Frame rate                               : 23.976 (24000/1001) FPS
Color space                              : YUV
Chroma subsampling                       : 4:2:0
Bit depth                                : 8 bits
Scan type                                : Progressive
Bits/(Pixel*Frame)                       : 0.047
Stream size                              : 1.42 GiB (78%)
Source stream size                       : 1.42 GiB (78%)
Encoded date                             : UTC 2019-01-20 12:00:06
Tagged date                              : UTC 2019-01-20 13:11:12
Color primaries                          : BT.709
Transfer characteristics                 : BT.709
Matrix coefficients                      : BT.709
Menus                                    : 5

Audio
ID                                       : 2
Format                                   : AAC
Format/Info                              : Advanced Audio Codec
Format profile                           : LC
Codec ID                                 : mp4a-40-2
Duration                                 : 1 h 58 min
Bit rate mode                            : Variable
Bit rate                                 : 448 kb/s
Maximum bit rate                         : 453 kb/s
Channel(s)                               : 6 channels
Channel positions                        : Front: L C R, Side: L R, LFE
Sampling rate                            : 48.0 kHz
Frame rate                               : 46.875 FPS (1024 SPF)
Compression mode                         : Lossy
Stream size                              : 378 MiB (20%)
Title                                    : English (aac 5.1)
Language                                 : English
Default                                  : Yes
Alternate group                          : 1
Encoded date                             : UTC 2019-01-20 12:00:06
Tagged date                              : UTC 2019-01-20 13:11:12

Text #1
ID                                       : 3
Format                                   : VobSub
Codec ID                                 : mp4s-E0
Codec ID/Info                            : The same subtitle format used on DVDs
Duration                                 : 1 h 57 min
Bit rate mode                            : Variable
Bit rate                                 : 11.1 kb/s
Maximum bit rate                         : 4 249 Mb/s
Stream size                              : 9.32 MiB (1%)
Language                                 : English
Default                                  : Yes
Forced                                   : No
Alternate group                          : 2
Encoded date                             : UTC 2019-01-20 12:00:06
Tagged date                              : UTC 2019-01-20 13:10:58

Text #2
ID                                       : 4
Format                                   : VobSub
Codec ID                                 : mp4s-E0
Codec ID/Info                            : The same subtitle format used on DVDs
Duration                                 : 1 h 58 min
Bit rate mode                            : Variable
Bit rate                                 : 20.9 kb/s
Maximum bit rate                         : 4 249 Mb/s
Stream size                              : 17.6 MiB (1%)
Language                                 : English
Default                                  : No
Forced                                   : No
Alternate group                          : 2
Encoded date                             : UTC 2019-01-20 12:00:06
Tagged date                              : UTC 2019-01-20 13:11:09

Menu
ID                                       : 5
Codec ID                                 : text
Duration                                 : 1 h 58 min
Encoded date                             : UTC 2019-01-20 12:00:06
Tagged date                              : UTC 2019-01-20 13:11:12
Menu For                                 : 1
00:00:00.000                             : Chapter 1
00:04:03.034                             : Chapter 2
00:10:16.407                             : Chapter 3
00:13:39.860                             : Chapter 4
00:21:25.450                             : Chapter 5
00:29:07.829                             : Chapter 6
00:36:09.083                             : Chapter 7
00:40:56.579                             : Chapter 8
00:50:17.430                             : Chapter 9
00:58:59.077                             : Chapter 10
01:04:56.434                             : Chapter 11
01:12:54.286                             : Chapter 12
01:18:32.123                             : Chapter 13
01:24:44.912                             : Chapter 14
01:29:47.340                             : Chapter 15
01:36:16.270                             : Chapter 16
01:43:35.333                             : Chapter 17
01:46:59.829                             : Chapter 18
Bit rate mode                            : VBR

Sharing Widget

To share this torrent inserting the provided BBCode into comments, status messages, forum posts or your signature.