Captain America Civil War 2016 IMAX Hybrid 1080p BluRay HEVC DD5 1 x265 [1080P][HEVC]

seeders: 1 leechers: 2 updated:
Added by nayhtut 3,114 in Movies > HD
Torrent verified. Downloaded 7 times.
Infohash a3c1d8200e84fae188c46ffc21b036679a66ff94
Cover
Captain America: Civil War ( 2016 )
VIDEO Blu-ray — 1080p — x265
AUDIO English
Rated PG-13
Released on 06 May 2016
Cate-Type Movie
Runtime 147 min
IMDB Link 3498820
IMDB Rating 7.8 (640,554 votes)
Summary
Political involvement in the Avengers' affairs causes a rift between Captain America and Iron Man.

Seek-Available


Description



Screenshots







Source:Captain America Civil War 2016 IMAX Hybrid 1080p BluRay DTS x264-DON (14.03 GB)

--__--__--__--__--__--__--__--__--__--__--__--__----__--__--__--__--__--__----__

Complete name:
Captain.America.Civil.War.2016.IMAX.Hybrid.1080p.BluRay.HEVC.DD5.1.x265.mkv
Format                                   : Matroska
File size                                : 3.85 GiB
Duration                                 : 2h 27mn
Overall bit rate                         : 3 736 Kbps
Encoded date                             : UTC 2016-11-28 16:04:40
Writing application                      : mkvmerge v9.5.0 ('Quiet Fire') 32bit
Writing library                          : libebml v1.3.4 + libmatroska v1.4.5
DURATION                                 : 02:26:16.679000000

Video

ID                                       : 1
Format                                   : V_MPEGH/ISO/HEVC
Duration                                 : 2h 27mn
Bit rate                                 : 3 277 Kbps
Width                                    : 1 920 pixels
Height                                   : 1 040 pixels
Display aspect ratio                     : 1.85:1
Frame rate                               : 23.976 fps
Bits/(Pixel*Frame)                       : 0.068
Stream size                              : 3.38 GiB (88%)
Title                                    : Captain.America.Civil.War.2016.IMAX.Hybrid.1080p.BluRay.HEVC.DD5.1.x265
Language                                 : English
Default                                  : Yes
Forced                                   : No
DURATION                                 : 02:27:41.937000000

Audio

ID                                       : 2
Format                                   : E-AC-3
Format/Info                              : Audio Coding 3
Format settings, Endianness              : Big
Codec ID                                 : A_EAC3
Duration                                 : 2h 27mn
Bit rate mode                            : Constant
Bit rate                                 : 384 Kbps
Channel(s)                               : 6 channels
Channel positions                        : Front: L C R, Side: L R, LFE
Sampling rate                            : 48.0 KHz
Compression mode                         : Lossy
Stream size                              : 406 MiB (10%)
Title                                    : E-AC-3 5.1
Language                                 : English
Default                                  : Yes
Forced                                   : No

Text #1

ID                                       : 3
Format                                   : UTF-8
Title                                    : FORCED
Language                                 : English
Default                                  : Yes

Text #2

ID                                       : 4
Format                                   : UTF-8
Title                                    : English
Language                                 : English

Text #3

ID                                       : 5
Format                                   : UTF-8
Title                                    : SDH
Language                                 : English

Menu

00:00:00.000                             : :Prologue
00:09:01.958                             : :Lagos
00:13:04.992                             : :I'm Right Where I Want to Be
00:21:03.345                             : :The Sokovia Accords
00:27:53.380                             : :We Need to Be Put in Check
00:31:57.290                             : :Peggy's Funeral
00:35:08.397                             : :Supporting the Initiative
00:42:58.450                             : :It Always Ends in a Fight
00:52:04.621                             : :Bucky's Evaluation
01:05:39.101                             : :Breakout
01:16:41.638                             : :Queens
01:22:28.777                             : :Hawkeye Returns
01:29:29.489                             : :You're After the Wrong Guy
01:34:09.769                             : :We Fight
01:45:38.582                             : :We Played This Wrong
01:55:54.322                             : :Zemo Revealed
02:02:35.056                             : :Steve vs. Tony
02:12:14.176                             : :We All Need Family
02:18:29.384                             : :End Credits

Sharing Widget

To share this torrent inserting the provided BBCode into comments, status messages, forum posts or your signature.