Alita Battle Angel 2019 BRRip XviD B4ND1T69

seeders: 1 leechers: 0 updated:
Added by B4ND1T69 1,748 in Movies > Other
Torrent verified. Downloaded 1 times.
Infohash 4d736f60c2f7e17d3f86354b29a556413d19b8d7
Cover
Alita: Battle Angel ( 2019 )
VIDEO Blu-ray — Other — Xvid
AUDIO English
Rated PG-13
Released on 14 Feb 2019
Cate-Type Movie
Runtime 122 min
IMDB Link 0437086
IMDB Rating 7.3 (214,695 votes)
Summary
A deactivated cyborg is revived, but cannot remember anything of her past life and goes on a quest to find out who she is.

Seek-Available

  • Alita.Battle.Angel.2019.BRRip.XviD.B4ND1T69 (Size: 1.48 GB)
      • 1337x text file.txt
      61.00 B
      • Downloaded from katcr.txt
      139.00 B
      • Alita.Battle.Angel.2019.BRRip.XviD.B4ND1T69.srt
      102.05 kB
      • Alita.Battle.Angel.2019.BRRip.XviD.B4ND1T69.avi
      1.48 GB
    • Files view Limit 50 — Current Torrent have 4 files

Description

Alita.Battle.Angel.2019.BRRip.XviD.B4ND1T69



Director: Robert Rodriguez
Writers: James Cameron (screenplay by), Laeta Kalogridis (screenplay by)
Stars: Rosa Salazar, Christoph Waltz, Jennifer Connelly

Plot/Story:
Alita is a creation from an age of despair. Found by the mysterious Dr. Ido while trolling for cyborg parts, Alita becomes a lethal, dangerous being. She cannot remember who she is, or where she came from. But to Dr. Ido, the truth is all too clear. She is the one being who can break the cycle of death and destruction left behind from Tiphares. But to accomplish her true purpose, she must fight and kill. And that is where Alita's true significance comes to bear. She is an angel from heaven. She is an angel of death.

General
Complete name               : Alita.Battle.Angel.2019.BRRip.XviD.B4ND1T69.avi
Format                      : AVI
Format/Info                 : Audio Video Interleave
File size                   : 1.48 GiB
Duration                    : 2 h 1 min
Overall bit rate            : 1 741 kb/s
Subtitles                   : Yes...Included(HI)

Video
ID                          : 0
Format                      : MPEG-4 Visual
Format profile              : Advanced Simple@L4
Format settings, BVOP       : 2
Format settings, QPel       : No
Format settings, GMC        : No warppoints
Format settings, Matrix     : Default (H.263)
Codec ID                    : XVID
Codec ID/Hint               : XviD
Duration                    : 2 h 1 min
Bit rate                    : 1 600 kb/s
Width                       : 720 pixels
Height                      : 304 pixels
Display aspect ratio        : 2.35:1
Frame rate                  : 23.976 (24000/1001) FPS
Color space                 : YUV
Chroma subsampling          : 4:2:0
Bit depth                   : 8 bits
Scan type                   : Progressive
Compression mode            : Lossy
Bits/(Pixel*Frame)          : 0.305
Stream size                 : 1.36 GiB (92%)
Writing library             : XviD 64

Audio
ID                          : 1
Format                      : MPEG Audio
Format version              : Version 1
Format profile              : Layer 3
Codec ID                    : 55
Codec ID/Hint               : MP3
Duration                    : 2 h 1 min
Bit rate mode               : Constant
Bit rate                    : 128 kb/s
Channel(s)                  : 2 channels
Sampling rate               : 48.0 kHz
Compression mode            : Lossy
Stream size                 : 112 MiB (7%)
Alignment                   : Aligned on interleaves
Interleave, duration        : 24  ms (0.58 video frame)

Screenshots:










Please Seed For As Long As Possible
Or At Least 1:1 Ratio...Thanks
Enjoy Peeps

Sharing Widget

To share this torrent inserting the provided BBCode into comments, status messages, forum posts or your signature.