Alita Battle Angel 2019 1080p WEBRip x264 ESub [MW]

seeders: 4 leechers: 1 updated:
Added by MWFreaky 4,700 in Movies > HD
Torrent verified. Downloaded 182 times.
Infohash 9b9931ba99e930f4964ebe18f53e025c328e26b3
Cover
Alita: Battle Angel ( 2019 )
VIDEO Web-Rip — 1080p — x264
AUDIO English
Rated PG-13
Released on 14 Feb 2019
Cate-Type Movie
Runtime 122 min
IMDB Link 0437086
IMDB Rating 7.3 (214,695 votes)
Summary
A deactivated cyborg is revived, but cannot remember anything of her past life and goes on a quest to find out who she is.

Seek-Available


Description




General
Format                                   : Matroska
Format version                           : Version 4
File size                                : 2.21 GiB
Duration                                 : 2 h 1 min
Overall bit rate                         : 2 602 kb/s

Video
ID                                       : 1
Format                                   : AVC
Format/Info                              : Advanced Video Codec
Format profile                           : High@L4.1
Format settings                          : CABAC / 4 Ref Frames
Format settings, CABAC                   : Yes
Format settings, Reference frames        : 4 frames
Codec ID                                 : V_MPEG4/ISO/AVC
Duration                                 : 2 h 1 min
Bit rate                                 : 2 400 kb/s
Width                                    : 1 920 pixels
Height                                   : 1 080 pixels
Display aspect ratio                     : 16:9
Frame rate mode                          : Constant
Frame rate                               : 23.976 (24000/1001) FPS
Color space                              : YUV
Chroma subsampling                       : 4:2:0
Bit depth                                : 8 bits
Scan type                                : Progressive
Bits/(Pixel*Frame)                       : 0.048
Stream size                              : 2.02 GiB (91%)
Writing library                          : x264 core 157 r2935 545de2f

Audio
ID                                       : 3
Format                                   : AAC LC
Codec ID                                 : A_AAC-2
Duration                                 : 2 h 1 min
Bit rate                                 : 224 kb/s
Channel(s)                               : 2 channels
Channel layout                           : L R
Sampling rate                            : 48.0 kHz
Frame rate                               : 46.875 FPS (1024 SPF)
Compression mode                         : Lossy
Stream size                              : 195 MiB (9%)
Language                                 : English

Text
ID                                       : 2
Format                                   : UTF-8
Codec ID                                 : S_TEXT/UTF8
Codec ID/Info                            : UTF-8 Plain Text
Duration                                 : 1 h 55 min
Bit rate                                 : 41 b/s
Count of elements                        : 1347
Stream size                              : 34.9 KiB (0%)
Default                                  : Yes
Forced                                   : No


Click To View Image

https://pichub.site/image/CJEDQ
https://pichub.site/image/CJSTk
https://pichub.site/image/CJdmv
https://pichub.site/image/CJ7sd
https://pichub.site/image/CJcY9

Sharing Widget

To share this torrent inserting the provided BBCode into comments, status messages, forum posts or your signature.