Alita Battle Angel 2019 720p WEBRip x264 Dual Audio [Hindi 2 0 English 2 0] ESub [MW]

seeders: 9 leechers: 5 updated:
Added by MWFreaky 4,700 in Movies > Dubbed Movies
Torrent verified. Downloaded 8,522 times.
Infohash 5c6ca2a578f802f21020cad18e52e64413edbfd6
Cover
Alita: Battle Angel ( 2019 )
VIDEO Web-Rip — 720p — x264
AUDIO Unknown
Rated PG-13
Released on 14 Feb 2019
Cate-Type Movie
Runtime 122 min
IMDB Link 0437086
IMDB Rating 7.3 (214,695 votes)
Genres Action, Adventure, Sci-Fi, Thriller
Summary
A deactivated cyborg is revived, but cannot remember anything of her past life and goes on a quest to find out who she is.

Seek-Available


Description




General
Format                                   : Matroska
Format version                           : Version 4
File size                                : 1.41 GiB
Duration                                 : 2 h 1 min
Overall bit rate                         : 1 651 kb/s

Video
ID                                       : 1
Format                                   : AVC
Format/Info                              : Advanced Video Codec
Format profile                           : High@L4.1
Format settings                          : CABAC / 4 Ref Frames
Format settings, CABAC                   : Yes
Format settings, Reference frames        : 4 frames
Codec ID                                 : V_MPEG4/ISO/AVC
Duration                                 : 2 h 1 min
Bit rate                                 : 1 400 kb/s
Width                                    : 1 280 pixels
Height                                   : 720 pixels
Display aspect ratio                     : 16:9
Frame rate mode                          : Constant
Frame rate                               : 23.976 (24000/1001) FPS
Color space                              : YUV
Chroma subsampling                       : 4:2:0
Bit depth                                : 8 bits
Scan type                                : Progressive
Bits/(Pixel*Frame)                       : 0.063
Stream size                              : 1.19 GiB (84%)
Writing library                          : x264 core 157 r2935 545de2f

Audio #1
ID                                       : 2
Format                                   : AAC LC
Codec ID                                 : A_AAC-2
Duration                                 : 2 h 1 min
Bit rate                                 : 128 kb/s
Channel(s)                               : 2 channels
Channel layout                           : L R
Sampling rate                            : 48.0 kHz
Frame rate                               : 46.875 FPS (1024 SPF)
Compression mode                         : Lossy
Stream size                              : 112 MiB (8%)
Language                                 : Hindi

Audio #2
ID                                       : 3
Format                                   : AAC LC
Codec ID                                 : A_AAC-2
Duration                                 : 2 h 1 min
Bit rate                                 : 129 kb/s
Channel(s)                               : 2 channels
Channel layout                           : L R
Sampling rate                            : 48.0 kHz
Frame rate                               : 46.875 FPS (1024 SPF)
Compression mode                         : Lossy
Stream size                              : 112 MiB (8%)
Language                                 : English

Text
ID                                       : 4
Format                                   : UTF-8
Codec ID                                 : S_TEXT/UTF8
Codec ID/Info                            : UTF-8 Plain Text
Duration                                 : 1 h 55 min
Bit rate                                 : 41 b/s
Count of elements                        : 1347
Stream size                              : 34.9 KiB (0%)
Default                                  : Yes
Forced                                   : No

Note:- It's Hindi Cleaned Audio


Click To View Image

https://pichub.site/image/CJxFD
https://pichub.site/image/CJLEZ
https://pichub.site/image/CJrug
https://pichub.site/image/CJo3I
https://pichub.site/image/CJ2aX

Sharing Widget

To share this torrent inserting the provided BBCode into comments, status messages, forum posts or your signature.