Alita Battle Angel 2019 Movies HC HDTS x264 Clean Audio V2 New Source with Sample ☻rDX☻

seeders: 4 leechers: 1 updated:
Added by teamrDX 14,734 in Movies > Cam
Torrent verified. Downloaded 10,116 times.
Infohash e45e2a2d00193cef7b0e14eeb6f54c05957ec756
Cover
Alita: Battle Angel ( 2019 )
VIDEO Other — Other — x264
AUDIO Unknown
Rated PG-13
Released on 14 Feb 2019
Cate-Type Movie
Runtime 122 min
IMDB Link 0437086
IMDB Rating 7.3 (214,695 votes)
Genres Action, Adventure, Sci-Fi, Thriller
Summary
A deactivated cyborg is revived, but cannot remember anything of her past life and goes on a quest to find out who she is.

Seek-Available


Description

Alita Battle Angel 2019 Movies HC HDTS x264 Clean Audio V2 New Source with Sample ☻rDX☻

Screen Shots

https://iphonehosting.eu/19/bankloan/datacable/1.html
https://iphonehosting.eu/19/bankloan/datacable/2.html
https://iphonehosting.eu/19/bankloan/datacable/3.html
https://iphonehosting.eu/19/bankloan/datacable/4.html
https://iphonehosting.eu/19/bankloan/datacable/5.html


File size                                : 696 MiB
Duration                                 : 1 h 55 min
Overall bit rate                         : 840 kb/s
Movie name                               : Alita Battle Angel 2019 Movies HC HDTS x264 Clean Audio V2 New Source ☻rDX☻

Video
ID                                       : 2
Format                                   : AVC
Format/Info                              : Advanced Video Codec
Format profile                           : Main@L2.1
Format settings, CABAC                   : Yes
Format settings, ReFrames                : 2 frames
Format settings, GOP                     : M=1, N=12
Codec ID                                 : V_MPEG4/ISO/AVC
Duration                                 : 1 h 55 min
Bit rate                                 : 759 kb/s
Width                                    : 700 pixels
Height                                   : 270 pixels
Display aspect ratio                     : 2.593
Frame rate mode                          : Constant
Frame rate                               : 23.976 (23976/1000) FPS
Color space                              : YUV
Chroma subsampling                       : 4:2:0
Bit depth                                : 8 bits
Scan type                                : Progressive
Bits/(Pixel*Frame)                       : 0.167
Stream size                              : 629 MiB (90%)
Title                                    : ☻rDX☻
Default                                  : Yes
Forced                                   : No

Audio
ID                                       : 1
Format                                   : AC-3
Format/Info                              : Audio Coding 3
Mode extension                           : CM (complete main)
Format settings, Endianness              : Big
Codec ID                                 : A_AC3
Duration                                 : 1 h 55 min
Bit rate mode                            : Constant
Bit rate                                 : 64.0 kb/s
Channel(s)                               : 2 channels
Channel positions                        : Front: L R
Sampling rate                            : 44.1 kHz
Frame rate                               : 28.711 FPS (1536 spf)
Bit depth                                : 16 bits
Compression mode                         : Lossy
Stream size                              : 53.1 MiB (8%)
Title                                    : ☻rDX☻
Default                                  : Yes
Forced                                   : No

https://www.imdb.com/title/tt0437086/

Sharing Widget

To share this torrent inserting the provided BBCode into comments, status messages, forum posts or your signature.