Grindhouse Nightmares 2017 UNCENSORED Movies HDRip x264 with Sample ☻rDX☻

seeders: 0 leechers: 0 updated:
Added by teamrDX 14,678 in Movies > Other
Torrent verified. Downloaded 0 times.
Infohash 70d3bb8d1433939a7fc0a5aa842c42ef3ac3b353
Cover
Grindhouse Nightmares ( 2017 )
VIDEO Web-DL — Other — x264
AUDIO English
Rated Not Rated
Cate-Type Movie
Runtime 75 min
IMDB Link 7520216
IMDB Rating 2.1 (220 votes)
Summary
Welcome to the Grindhouse experience like it was meant to be, killer story lines and themes zig zig across the screen in Grind-O-Vision, a nonstop thrill ride of babes, guns, muscle cars, ...

Seek-Available


Description

18+ Grindhouse Nightmares 2017 UNCENSORED Movies HDRip x264 with Sample ☻rDX☻

:Qpirate: Screen Shots :Qpirate:

postimage.co.nr/2018/2/course/index.html
postimage.co.nr/2018/2/course/1.html
postimage.co.nr/2018/2/course/2.html
postimage.co.nr/2018/2/course/3.html
postimage.co.nr/2018/2/course/4.html

File size                                : 695 MiB
Duration                                 : 1 h 13 min
Overall bit rate                         : 1 315 kb/s
Movie name                               : 18+ Grindhouse Nightmares 2017 UNCENSORED Movies HDRip x264 ☻rDX☻

Video
ID                                       : 2
Format                                   : MPEG-4 Visual
Format profile                           : Advanced Simple@L5
Format settings, BVOP                    : 2
Format settings, QPel                    : No
Format settings, GMC                     : No warppoints
Format settings, Matrix                  : Default (H.263)
Muxing mode                              : Packed bitstream
Codec ID                                 : V_MS/VFW/FOURCC / XVID
Codec ID/Hint                            : XviD
Duration                                 : 1 h 13 min
Bit rate                                 : 1 161 kb/s
Width                                    : 640 pixels
Height                                   : 272 pixels
Display aspect ratio                     : 2.35:1
Frame rate mode                          : Constant
Frame rate                               : 23.976 (24000/1001) FPS
Color space                              : YUV
Chroma subsampling                       : 4:2:0
Bit depth                                : 8 bits
Scan type                                : Progressive
Compression mode                         : Lossy
Bits/(Pixel*Frame)                       : 0.278
Stream size                              : 613 MiB (88%)
Title                                    : ☻rDX☻
Writing library                          : XviD 67
Default                                  : Yes
Forced                                   : No

Audio
ID                                       : 1
Format                                   : MPEG Audio
Format version                           : Version 1
Format profile                           : Layer 3
Mode                                     : Joint stereo
Codec ID                                 : A_MPEG/L3
Codec ID/Hint                            : MP3
Duration                                 : 1 h 13 min
Bit rate mode                            : Constant
Bit rate                                 : 128 kb/s
Channel(s)                               : 2 channels
Sampling rate                            : 48.0 kHz
Compression mode                         : Lossy
Stream size                              : 67.6 MiB (10%)
Title                                    : ☻rDX☻
Writing library                          : LAME3.99r
Default                                  : Yes
Forced                                   : No

Sharing Widget

To share this torrent inserting the provided BBCode into comments, status messages, forum posts or your signature.